<svg xml:space="preserve" width="57.296" height="57.512" version="1.1" style="clip-rule:evenodd;fill-rule:evenodd;image-rendering:optimizeQuality;shape-rendering:geometricPrecision;text-rendering:geometricPrecision" viewBox="0 0 596.83 599.088" id="svg83" xmlns="http://www.w3.org/2000/svg"><defs id="defs53"><font id="FontID3" horiz-adv-x="748" font-variant="normal" style="fill-rule:nonzero" font-style="normal" font-weight="400" horiz-origin-x="0" horiz-origin-y="0" vert-origin-x="512" vert-origin-y="768" vert-adv-y="1024"><font-face font-family="Elephant" id="font-face1"><font-face-src><font-face-name name="Elephant"/></font-face-src></font-face><missing-glyph id="missing-glyph1"><path d="M0 0z" id="path1"/></missing-glyph><glyph unicode="7" horiz-adv-x="626" d="m705 729 2-7.001c-30-29.998-62.665-63.499-98-100.5-35.334-37-75-82.165-119-135.499-44-53.334-81.332-113.833-112-181.5-30.667-67.666-46-135.166-46-202.5 0-11.335.833-27.333 2.5-48 1.667-20.668 2.5-32.667 2.5-36C337-27.332 323-64.333 295-93S233.335-136 194-136c-41.333 0-74.001 13.665-98 41C72-67.666 60-33.332 60 8c0 38.667 13.834 78.998 41.5 121 27.667 42 60.667 81.666 99 119 38.333 37.333 75.5 71.833 111.5 103.5 36 31.666 69.833 61.332 101.499 89 31.666 27.666 59.168 52.498 82.501 74.498l-2 5c-8 0-27-.498-57.001-1.5-30-.999-50.332-1.5-61-1.5H152c-33.332 0-55.833-3.5-67.5-10.499-11.667-7-23.165-22.166-34.5-45.5l-12-30-12 3 105 363h12L140 771c0-19.333 5.167-31.5 15.5-36.501 10.333-4.998 29.5-7.5 57.5-7.5h176c63.333 0 122.5.167 177.501.501 54.998.332 101.165.833 138.5 1.5z" id="glyph1"/></font><font id="FontID2" horiz-adv-x="485" font-variant="normal" style="fill-rule:nonzero" font-weight="400" horiz-origin-x="0" horiz-origin-y="0" vert-origin-x="512" vert-origin-y="768" vert-adv-y="1024"><font-face font-family="Hamburger Heaven NF" id="font-face2"><font-face-src><font-face-name name="HamburgerHeavenNF"/></font-face-src></font-face><missing-glyph id="missing-glyph2"><path d="M0 0z" id="path2"/></missing-glyph><glyph unicode="G" horiz-adv-x="498" d="M485 736.998H229.998c-94.999 0-164.999-59.998-171.995-143L19 142.002c0-4.003-.998-8-.998-12.003 0-87.996 79.996-130 192.997-130 28.004 0 54 7.003 78 22L280.001-76c-4.003-43-35-75.999-74.003-75.999H97.001l-5.998-67h135c94 0 180.999 64.999 188 143L456 401.998H321.998l-22.997-259.997c-4.003-44.004-43-76.004-85.002-76.004-38 0-62 23.002-62 63.003 0 3.998 0 8 1.003 13.001l40.999 469c3 35 23.003 59 46.998 59h238.004L485 736.999z" id="glyph2"/><glyph unicode="I" horiz-adv-x="228" d="M213 736.998H78.998L15.002 0h133.996L213 736.998z" id="glyph3"/><glyph unicode="L" horiz-adv-x="347" d="M342.001 67H191.999c-22.997 0-33.997 10.002-33.997 30.998l54 639h-170l-6.004-66.995h37.001L24 104.003c0-4.003-.997-7.003-.997-11C23.003 32.001 64.999 0 127 0h210l5.001 67.001z" id="glyph4"/><glyph unicode="N" horiz-adv-x="485" d="M460.002 579.001c0 5.999.998 11 .998 16.998 0 86-75.999 140.998-180.001 140.998h-232L43 670.002h40.001L24.998 0H159l58.003 665.002H275c30 0 51.998-27 51.998-72.002 0-3.997-.997-8.998-.997-13.998l-42.003-475C283 100 283 95 283 91.002 283 35 324 0 388 0h54l5.999 67c-19 .999-29.002 11-29.002 30.998l41.005 481.003z" id="glyph5"/><glyph unicode="O" horiz-adv-x="487" d="M463.999 582c0 5 1.004 10.002 1.004 14.997 0 81.005-70 140-168.004 140h-43c-105 0-186-65.997-194-154.997L23.002 155.002C21.999 150 21.999 145 21.999 139.999c0-81.997 70-140 167-140h43.998c105 0 185.002 64.002 193.002 155.003l38 426.998zm-132 19-40-466.001C288.998 96 256 65.996 217.002 65.996 180 65.996 153 94 153 127.996c0 2.002.998 5.001.998 7.003l41 466c2.998 37.002 37.998 69.003 75 69.003 35 0 62-29.001 62-64.001V601z" id="glyph6"/><glyph unicode="R" horiz-adv-x="479" d="M396.998 401.999c39.003 35 58.003 103.333 58.003 206.834 0 79.166-63.004 128.164-164.001 128.164H50.002L43.997 671H83L24.998 0h133.004l30.997 356H261C283 356 294 344.002 294 320.002l-16.998-216c-1.004-4.002-1.004-8-1.004-12.002 0-60.997 35-92 104.002-92h57l5.998 67.001C420.998 67.001 410 77.003 410 96.003L428 313c.998 11 .998 16.998.998 16.998 0 32-11 56.001-32 72.002zm-75.001 221.836L310 473.164C307 439.998 291.998 423 263.002 423h-68.004l22.004 248h58.995c29.002 0 46-19.998 46-47.165z" id="glyph7"/><glyph unicode="S" horiz-adv-x="380" d="M344.002 736.998H256c-132.998 0-226.001-89.998-226.001-198.995 0-35 10.002-65.005 29.001-92.005l138-190.995C218.997 224 229.997 194.999 229.997 165c0-57-43.998-97.998-122.996-97.998h-86L13.998 0h99.002C264.999 0 364 92 364 218c0 51.001-15.003 95.997-45.002 135L196.002 513c-20.003 26.002-30 52.004-30 78 0 40.001 22.998 79.004 108 79.004h63.996L344.003 737z" id="glyph8"/></font><font id="FontID1" horiz-adv-x="719" font-variant="normal" style="fill-rule:nonzero" font-style="normal" font-weight="400" horiz-origin-x="0" horiz-origin-y="0" vert-origin-x="512" vert-origin-y="768" vert-adv-y="1024"><font-face font-family="Arial Rounded MT Bold" id="font-face8"><font-face-src><font-face-name name="Arial Rounded MT Bold"/></font-face-src></font-face><missing-glyph id="missing-glyph8"><path d="M0 0z" id="path8"/></missing-glyph><glyph unicode="A" horiz-adv-x="719" d="M536.161 81.172 502 170.994H210.997l-34.161-91.665c-13.339-35.828-24.671-59.998-34.174-72.497-9.327-12.498-24.834-18.83-46.334-18.83-18.165 0-34.324 6.67-48.327 19.996C33.998 21.337 27.003 36.505 27.003 53.33c0 9.84 1.668 20.008 4.827 30.338 3.334 10.505 8.675 24.834 16.171 43.5l183.003 464.667c5.328 13.339 11.496 29.335 18.83 48.001 7.333 18.83 15.169 34.337 23.505 46.66 8.324 12.336 19.155 22.34 32.657 30 13.501 7.671 30.175 11.507 50.007 11.507 20.334 0 37.17-3.836 50.659-11.508 13.501-7.66 24.332-17.488 32.669-29.498C447.668 675 454.663 662 460.329 648.172c5.666-13.84 13-32.344 21.675-55.335l186.99-461.834c14.668-35.164 22.001-60.675 22.001-76.671 0-16.498-6.832-31.83-20.66-45.67-13.84-13.827-30.663-20.66-50.17-20.66-11.332 0-21.16 1.994-29.334 6.168-7.998 4-14.83 9.49-20.497 16.498-5.503 6.995-11.333 17.826-17.663 32.168-6.507 14.492-11.835 27.329-16.51 38.336zM249.17 279.996H463L355.164 574.998 249.17 279.996z" id="glyph9"/><glyph unicode="C" horiz-adv-x="740" d="M688.162 226.166c0-22.828-5.49-47.5-16.824-74.001-11.17-26.502-28.833-52.502-53.003-78-24.006-25.662-54.833-46.334-92.166-62.33C488.661-4 444.997-11.997 395.166-11.997c-37.671 0-71.995 3.498-102.997 10.669C261.33 5.83 233.161 17 208.001 32.168 182.83 47.162 159.5 67.17 138.338 91.828c-18.842 22.503-35.001 47.5-48.34 75.343-13.326 27.83-23.33 57.666-30 89.157-6.668 31.667-10.003 65.176-10.003 100.678 0 57.491 8.337 109.165 25.173 154.66 16.66 45.669 40.83 84.669 71.995 117 31.34 32.33 67.834 57.001 109.842 74 41.996 16.836 86.826 25.336 134.325 25.336 58.005 0 109.504-11.508 154.835-34.663 45.168-23.004 79.83-51.674 104-85.672 24.007-33.998 36.167-66.003 36.167-96.328 0-16.673-5.992-31.178-17.663-44.002-11.672-12.674-25.838-19.005-42.498-19.005-18.504 0-32.507 4.5-41.67 13.163-9.34 8.838-19.67 24.007-31.002 45.506-18.993 35.503-41.17 62.004-66.668 79.668-25.662 17.5-57.002 26.326-94.498 26.326-59.672 0-106.996-22.666-142.336-67.834-35.327-45.33-53.003-109.667-53.003-192.995 0-55.66 7.835-101.995 23.506-139 15.494-36.995 37.67-64.5 66.329-82.827 28.67-18.178 62.167-27.342 100.666-27.342 41.67 0 76.834 10.33 105.668 31.002 28.833 20.672 50.508 50.998 65.175 91.163 6.168 18.842 13.828 34.174 22.992 46.171 9 11.834 23.668 17.84 43.839 17.84 17.337 0 32.168-6.006 44.503-18.178 12.323-11.997 18.491-26.99 18.491-44.83z" id="glyph10"/><glyph unicode="D" horiz-adv-x="740" d="M167.835 716.005h188.996c49.167 0 91.339-4.5 126.503-13.677 35.34-9.164 67.169-26.326 95.84-51.323 74.49-63.835 111.822-161.002 111.822-291.166 0-43.012-3.66-82.175-11.157-117.677-7.51-35.49-19.168-67.495-34.675-95.99-15.658-28.507-35.666-54.006-60.161-76.508-19.168-17.162-40.166-31.002-63.007-41.332-22.829-10.493-47.324-17.827-73.5-22.001C422.333 2.169 392.672 0 359.84 0H170.832c-26.326 0-46.158 3.998-59.66 11.996-13.338 7.998-22 19.168-26 33.672-4.174 14.492-6.168 33.334-6.168 56.326V627.16c0 31.177 6.996 53.843 20.998 67.833 14.003 14.003 36.669 21.01 67.834 21.01zm56.162-115.007V114.995h110.005c23.995 0 43 .677 56.664 2.006 13.664 1.329 27.83 4.5 42.497 9.665 14.668 5.34 27.342 12.662 37.998 22.001 48.502 41.006 72.835 111.672 72.835 212 0 70.667-10.668 123.67-31.992 158.834-21.337 35.164-47.676 57.504-78.84 67.17-31.329 9.502-69.163 14.328-113.328 14.328h-95.839z" id="glyph11"/><glyph unicode="E" horiz-adv-x="667" d="M549.662 603.994H222.994V427.998h300.844c22.164 0 38.662-5.002 49.493-14.83 11.007-9.841 16.335-23.004 16.335-39.163 0-16.172-5.328-29.51-15.997-39.677-10.83-10.167-27.341-15.332-49.831-15.332H222.994V114.994h337.838c22.841 0 40.003-5.328 51.499-15.833C624 88.668 629.83 74.5 629.83 57c0-16.836-5.83-30.663-17.5-41.169C600.835 5.327 583.673 0 560.832 0h-394c-31.504 0-54.169 6.995-67.996 20.998C84.996 35 78 57.666 78 88.831V627.16c0 20.835 3.172 37.834 9.327 51.01 6.168 13.163 15.846 22.828 29.01 28.833 13.162 5.992 29.998 9 50.495 9h382.83c23.167 0 40.342-5.177 51.499-15.344 11.17-10.33 16.836-23.83 16.836-40.328 0-17-5.667-30.664-16.836-40.994-11.157-10.167-28.332-15.344-51.499-15.344z" id="glyph12"/><glyph unicode="I" horiz-adv-x="313" d="M84.005 76.333V640.16c0 29.335 6.657 51.173 19.995 65.84 13.339 14.667 30.664 22.001 51.837 22.001 21.663 0 39.327-7.17 52.828-21.663 13.502-14.504 20.334-36.505 20.334-66.178V76.333c0-29.66-6.833-51.662-20.334-66.33-13.501-14.667-31.165-22-52.827-22-20.836 0-38.01 7.333-51.5 22.164-13.5 14.83-20.333 36.831-20.333 66.166z" id="glyph13"/><glyph unicode="L" horiz-adv-x="603" d="M219.998 640.161V119.006h293.999c23.342 0 41.332-5.679 53.83-17.012C580.502 90.5 586.67 76.17 586.67 58.995c0-17.5-6.168-31.83-18.503-42.66C555.83 5.502 537.666 0 513.997 0H163.836c-31.503 0-54.169 6.995-67.996 20.998C82 35 75.005 57.666 75.005 88.83v551.33c0 29.171 6.656 51.172 19.832 65.84 13.163 14.667 30.5 22 52 22 21.663 0 39.326-7.17 52.828-21.662 13.501-14.505 20.333-36.669 20.333-66.179z" id="glyph14"/><glyph unicode="M" horiz-adv-x="833" d="M319.836 107.999 205.004 564.003V70.002c0-27.341-6.168-47.838-18.34-61.503-12.16-13.664-28.332-20.496-48.327-20.496-19.507 0-35.503 6.832-47.839 20.333-12.335 13.502-18.503 33.999-18.503 61.666v566.335c0 31.328 8.174 52.326 24.333 63.333 16.335 10.831 38.336 16.335 65.84 16.335h44.992c27.003 0 46.51-2.508 58.67-7.334 12.172-4.839 21.336-13.677 27.166-26.339 5.841-12.661 12.498-33.333 20.007-62.004l104-392.333 104 392.333c7.497 28.67 14.166 49.343 19.996 62.004 5.829 12.662 14.83 21.5 27.003 26.339 12.16 4.826 31.829 7.334 58.832 7.334h44.83c27.667 0 49.668-5.504 66.003-16.335 16.171-11.007 24.332-32.005 24.332-63.333V70.002c0-27.341-6.168-47.838-18.328-61.503-12.172-13.664-28.507-20.496-48.84-20.496-19.168 0-35.002 6.832-47.337 20.496-12.323 13.665-18.491 34.162-18.491 61.503v494.001L514.17 107.999c-7.51-29.498-13.502-51.336-18.34-65.163-4.664-13.665-13.327-26.339-26-37.671-12.838-11.496-30.338-17.163-52.828-17.163-17 0-31.34 3.661-43 10.995-11.67 7.333-20.835 16.673-27.34 28.006-6.495 11.495-11.66 23.994-15.333 37.834-3.836 13.827-7.66 28.332-11.495 43.162z" id="glyph15"/><glyph unicode="N" horiz-adv-x="759" d="m267.334 641.001 278.667-422.006V645c0 27.667 5.992 48.34 17.826 62.167 11.835 13.827 27.843 20.835 48.002 20.835 20.672 0 37.17-6.832 49.167-20.672 12.01-13.827 18.002-34.663 18.002-62.33V82.162c0-62.831-26-94.16-78-94.16-13 0-24.66 1.83-35.165 5.667-10.33 3.66-20.17 9.665-29.171 17.663-9.164 8.162-17.5 17.664-25.323 28.67-7.836 10.832-15.67 22.002-23.506 33.335L215.998 490.003V71.006c0-27.342-6.33-48.002-19.005-62.004-12.824-14.003-29.159-20.999-48.991-20.999-20.497 0-37.007 6.996-49.33 21.162C86.16 23.33 80.005 44.003 80.005 71.005V623c0 23.505 2.658 41.833 7.823 55.171 6.168 14.668 16.51 26.665 30.84 35.992 14.328 9.176 29.835 13.84 46.333 13.84 13.163 0 24.333-2.169 33.497-6.33 9.34-4.338 17.5-10.005 24.495-17.176 7.008-7.158 14.179-16.334 21.512-27.83 7.322-11.333 14.994-23.167 22.829-35.665z" id="glyph16"/><glyph unicode="O" horiz-adv-x="791" d="M392.997 728.002c74.34 0 137.998-15.006 191.164-45.168 53.166-29.999 93.508-72.835 120.836-128.333 27.329-55.498 41.006-120.673 41.006-195.502 0-55.335-7.51-105.668-22.503-150.836-15.005-45.33-37.332-84.494-67.331-117.665-30-33.17-66.668-58.494-110.331-76.17-43.677-17.5-93.508-26.326-149.833-26.326-56.012 0-106.17 9.001-150.334 27.166-44.341 18.002-81.172 43.5-110.833 76.333-29.674 32.832-52 72.334-67.17 118.668-15.168 46.158-22.665 96.165-22.665 149.833 0 54.996 7.823 105.329 23.656 151.337 15.833 45.832 38.674 84.832 68.673 117.163 29.836 32.168 66.33 56.827 109.328 73.826 42.836 17.174 91.677 25.674 146.335 25.674zm206.007-368c0 52.326-8.5 97.832-25.336 136.331-16.999 38.336-41.169 67.332-72.496 87.164-31.341 19.67-67.508 29.498-108.175 29.498-28.834 0-55.661-5.49-80.17-16.322-24.658-11.007-45.832-26.84-63.495-47.675-17.664-20.836-31.667-47.5-41.997-79.83-10.166-32.507-15.331-68.837-15.331-109.166 0-40.83 5.165-77.499 15.331-110.507 10.33-32.832 24.835-60.161 43.501-81.824 18.666-21.675 40.166-37.834 64.336-48.502 24.333-10.832 50.822-16.172 79.83-16.172 37.17 0 71.168 9.34 102.333 27.83 31.002 18.504 55.661 47.174 74.164 86.011 18.328 38.662 27.505 86.5 27.505 143.163z" id="glyph17"/><glyph unicode="P" horiz-adv-x="667" d="M355.827 279.006H222.993V76.333c0-28.996-6.832-50.834-20.497-65.828-13.664-15.005-31.002-22.502-51.661-22.502-21.839 0-39.502 7.334-52.84 22.164-13.327 14.83-19.996 36.668-19.996 65.163v551.831c0 31.842 7.334 54.67 22.001 68.335 14.668 13.677 37.834 20.51 69.827 20.51h186c55.009 0 97.344-4.175 127.004-12.675 29.335-8.161 54.67-21.663 76.007-40.492 21.324-19.005 37.496-42.009 48.49-69.338C618.498 566.173 624 535.333 624 501.172c0-73.01-22.503-128.17-67.332-165.84-45.005-37.496-111.835-56.326-200.842-56.326zm-35.164 327.997h-97.67V387.996h97.67c34.174 0 62.831 3.673 85.835 10.844 22.829 7.158 40.33 18.83 52.502 35.164 11.997 16.159 18.002 37.658 18.002 63.997 0 31.666-9.34 57.328-27.83 77.16-20.836 21.174-63.672 31.842-128.51 31.842z" id="glyph18"/><glyph unicode="S" horiz-adv-x="667" d="M621.996 214.67c0-43.175-11.157-82-33.497-116.499-22.164-34.5-54.833-61.503-97.832-81.009-43-19.494-93.997-29.16-152.83-29.16-70.666 0-129.01 13.327-174.841 39.828-32.494 19.168-58.833 44.842-79.166 76.835-20.334 32.005-30.5 63.17-30.5 93.507 0 17.5 6.167 32.494 18.34 45.156 12.16 12.51 27.667 18.666 46.496 18.666 15.332 0 28.17-4.826 38.662-14.655 10.668-9.678 19.67-24.17 27.166-43.5 9-22.678 19.005-41.834 29.51-57.002 10.668-15.332 25.499-28.006 44.667-37.998 19.33-9.84 44.49-14.842 75.831-14.842 42.836 0 77.837 10.003 104.665 29.999C465.495 144.003 478.996 169 478.996 199c0 23.831-7.158 43.162-21.663 57.83-14.504 14.842-33.333 26.175-56.337 33.997-22.829 7.836-53.668 16.172-91.99 25.01-51.337 11.997-94.511 26.163-129.01 42.16-34.664 16.171-62.168 38.172-82.502 66.002-20.32 27.83-30.488 62.33-30.488 103.837 0 39.327 10.656 74.328 32.156 104.991 21.5 30.501 52.677 54.006 93.344 70.504 40.655 16.498 88.493 24.671 143.49 24.671 43.838 0 81.835-5.503 114.003-16.334 32.005-11.007 58.67-25.5 79.83-43.501 20.999-18.002 36.506-36.994 46.335-56.84 9.665-19.831 14.667-39.325 14.667-58.155 0-17.174-6.168-32.844-18.328-46.672-12.173-13.827-27.504-20.672-45.67-20.672-16.672 0-29.171 4.174-37.834 12.336-8.662 8.336-18.002 22-27.993 40.83-13.175 27.003-28.67 48.177-47.01 63.345-18.166 15.157-47.5 22.666-87.992 22.666-37.333 0-67.67-8.174-90.499-24.671-23.004-16.498-34.5-36.167-34.5-59.334 0-14.33 3.824-26.665 11.66-37.17 7.834-10.33 18.666-19.33 32.33-26.828 13.677-7.496 27.504-13.338 41.507-17.663 14.003-4.175 37.17-10.342 69.326-18.503 40.341-9.503 77.01-19.833 109.667-31.341 32.669-11.333 60.5-25.16 83.503-41.495 23.004-16.171 40.83-36.831 53.668-61.665 12.837-24.998 19.33-55.498 19.33-91.665z" id="glyph19"/><glyph unicode="T" horiz-adv-x="625" d="M543.168 595.996H384.999V76.333c0-30-6.67-52.163-20.17-66.668-13.327-14.504-30.664-21.662-51.825-21.662-21.5 0-39.176 7.334-52.665 22-13.501 14.668-20.334 36.67-20.334 66.33v519.663H81.836c-24.834 0-43.174 5.503-55.171 16.335C14.668 623.337 8.5 637.829 8.5 655.83c0 18.504 6.33 33.171 18.829 44.002 12.499 10.832 30.676 16.172 54.507 16.172h461.332c25.16 0 43.664-5.503 56-16.673 12.16-11.17 18.327-25.662 18.327-43.5 0-18.003-6.33-32.494-18.666-43.501-12.323-10.832-30.826-16.335-55.66-16.335z" id="glyph20"/><glyph unicode="U" horiz-adv-x="759" d="M79.003 296.005v344.156c0 29.335 6.67 51.173 19.832 65.84 13.163 14.668 30.501 22.001 52 22.001 22.328 0 40.167-7.334 53.33-22 13.163-14.668 19.832-36.67 19.832-65.841V287.994c0-39.99 4.5-73.5 13.501-100.327 8.838-26.827 24.835-47.663 47.5-62.505 22.841-14.83 54.67-22.164 95.664-22.164 56.676 0 96.666 15.005 120.172 45.167 23.505 30.163 35.164 75.832 35.164 136.996v355c0 29.51 6.506 51.675 19.506 66.179 13 14.492 30.5 21.663 52.326 21.663 21.675 0 39.339-7.171 52.84-21.663 13.502-14.504 20.334-36.668 20.334-66.179V296.005c0-55.999-5.503-102.834-16.335-140.167-11.006-37.508-31.503-70.34-61.84-98.672-26-23.994-56.326-41.495-90.826-52.665-34.5-10.994-74.84-16.497-120.999-16.497-55.008 0-102.333 5.992-142.173 17.826-39.664 11.835-71.995 30.338-96.992 55.172-25.173 24.834-43.5 56.827-55.335 95.664-11.671 38.837-17.5 85.334-17.5 139.34z" id="glyph21"/><glyph unicode="Y" horiz-adv-x="625" d="M238 76.333v227.005L63.17 574.17c-15.332 24.496-26.176 43.5-32.506 57.165-6.331 13.665-9.503 25.499-9.503 35.666 0 16.497 6.506 30.826 19.344 42.999 12.824 11.997 28.657 18.002 47.662 18.002 19.832 0 34.838-5.667 45.168-16.836 10.167-11.17 25.499-33.497 45.995-66.994l133.836-217.177 135.328 217.177a3138.666 3138.666 0 0 0 20.51 33.66c5.49 9 11.495 17.5 18.327 25.499 6.67 7.998 14.003 14.165 22.164 18.34 8.174 4.162 18.002 6.33 29.837 6.33 18.165 0 33.333-6.004 45.506-17.838 12.323-11.834 18.328-25.662 18.328-41.17 0-12.66-2.996-25.498-9.164-38.16-6.168-12.66-16.836-30.161-31.842-52.664L383.005 303.34V76.332c0-29.66-6.845-51.662-20.51-66.329-13.664-14.667-31.164-22-52.162-22-21.5 0-39 7.157-52.339 21.662C244.668 24.17 238 46.334 238 76.333z" id="glyph22"/></font><font id="FontID0" horiz-adv-x="667" font-variant="normal" style="fill-rule:nonzero" font-style="normal" font-weight="400" horiz-origin-x="0" horiz-origin-y="0" vert-origin-x="512" vert-origin-y="768" vert-adv-y="1024"><font-face font-family="Arial" id="font-face22"><font-face-src><font-face-name name="Arial"/></font-face-src></font-face><missing-glyph id="missing-glyph22"><path d="M0 0z" id="path22"/></missing-glyph><glyph unicode="," horiz-adv-x="277" d="M89 0v99.998h99.997V0c0-36.831-6.505-66.671-19.656-89.329-13.011-22.675-33.847-40.336-62.334-52.67l-24.01 37.993c18.667 8.171 32.338 20.177 40.995 35.843C132.839-52.341 137.836-29.666 138.825 0H88.999z" id="glyph23"/><glyph unicode="." horiz-adv-x="277" d="M91.005 0v100.002h99.992V0H91.005z" id="glyph24"/><glyph unicode="0" horiz-adv-x="556" d="M41.998 353.332c0 84.503 8.667 152.835 26.003 204.5 17.501 51.836 43.333 91.669 77.668 119.5 34.163 27.836 77.331 41.666 129.333 41.666 38.331 0 71.998-7.663 101.165-23.166 29-15.497 53-37.829 71.667-66.996 18.666-29 33.335-64.5 44.001-106.338C502.667 480.666 508 424.166 508 353.332c0-84-8.668-151.996-25.832-203.666-17.17-51.83-43.002-91.663-77.337-119.665C370.668 2 327.334-12.002 275.001-12.002c-68.834 0-123 24.502-162.336 73.671C65.5 121.665 41.998 218.832 41.998 353.333zm90.001-.331c0-117.833 13.67-196.168 41.17-234.831C200.667 79.336 234.665 60.002 275 60.002c40.33 0 74.334 19.5 101.833 58.333 27.5 39 41.164 117.165 41.164 234.666 0 117.833-13.664 196.168-41.164 234.831C349.5 626.666 315.166 646 274.002 646c-40.335 0-72.666-17.164-96.836-51.333-30.166-43.499-45.167-124.165-45.167-241.666z" id="glyph25"/><glyph unicode="1" horiz-adv-x="556" d="M371.998 0H284v560.332c-21.167-20.334-48.998-40.501-83.332-60.664-34.334-20.168-65.334-35.333-92.668-45.337v85c49.169 23 92.166 51.002 129 84 36.83 32.833 63 64.666 78.331 95.666h56.667V0z" id="glyph26"/><glyph unicode="2" horiz-adv-x="556" d="M502.998 84V0H29.001c-.668 21.167 2.832 41.5 10.33 61.166 12.168 32.165 31.667 63.998 58.504 95.17 26.832 31.165 65.164 67.166 115 108C290.332 328.167 343.001 378.666 370.501 416c27.666 37.332 41.501 72.666 41.501 106.001 0 34.831-12.505 64.164-37.503 88.163C349.5 633.998 316.833 646 276.669 646c-42.5 0-76.504-12.665-102.005-38-25.495-25.164-38.331-60.167-38.663-105.002L46 512.003c6.167 67.332 29.498 118.666 69.834 154 40.5 35.333 94.666 52.995 162.833 52.995 68.663 0 123.166-18.998 163.165-57.164 40.17-38.166 60.166-85.502 60.166-141.832 0-28.67-5.83-56.837-17.667-84.503-11.665-27.83-31.165-56.997-58.333-87.666-27.334-30.497-72.5-72.666-135.5-125.998-52.829-44.333-86.832-74.333-101.832-90.167-15-15.834-27.334-31.668-37.167-47.668h351.499z" id="glyph27"/><glyph unicode="3" horiz-adv-x="556" d="M41.998 190.002 130 201.999c10.165-49.997 27.169-85.999 51.334-108 24.165-22 53.834-32.998 88.997-32.998 41.671 0 76.834 14.332 105.168 43.002 28.333 28.664 42.5 64.164 42.5 106.498 0 40.33-13.168 73.665-39.663 100-26.334 26.163-59.835 39.33-100.668 39.33-16.667 0-37.332-3.329-62.165-9.832l9.833 77c5.83-.668 10.666-1 14.166-1 37.664 0 71.33 9.833 101.496 29.333 30 19.5 45.001 49.5 45.001 90.002 0 32.164-10.997 58.83-32.833 79.997C331.331 636.5 303.17 647 268.67 647c-34.334 0-62.833-10.832-85.668-32.501-22.834-21.664-37.503-54.166-44.001-97.5l-87.998 16C61.834 592 86.165 637.834 124.331 670.33c38 32.502 85.502 48.667 142.169 48.667 39 0 75.001-8.331 107.834-25.164 32.998-16.668 58.168-39.502 75.498-68.333 17.501-29 26.17-59.67 26.17-92.165 0-30.835-8.337-58.837-24.834-84.167-16.667-25.335-41.335-45.503-73.836-60.503 42.334-9.667 75.167-30 98.67-60.835 23.33-30.663 34.996-69.331 34.996-115.497 0-62.502-22.829-115.668-68.332-159.167C397.003 9.667 339.331-12.002 269.67-12.002c-62.833 0-115 18.837-156.5 56.335-41.667 37.498-65.335 85.999-71.17 145.669z" id="glyph28"/><glyph unicode="4" horiz-adv-x="556" d="M323 0v170.999H12.002v81.002L338.999 716h71.998V252.002H508V171h-97.002V0H323zm0 252.001v322.166L98.498 252.001H323z" id="glyph29"/><glyph unicode="5" horiz-adv-x="556" d="m41.998 187.998 92 7c6.835-44.83 22.668-78.496 47.336-101.165C206 71.336 236.167 60.001 271.667 60.001c42.83 0 78.667 16 107.834 47.833 29 32 43.499 74.334 43.499 126.997 0 50.169-13.835 89.67-41.666 118.666-27.837 29.002-64.667 43.505-110.501 43.505-28.5 0-54-6.504-76.669-19.5-22.498-13.002-40.164-29.835-53.166-50.5L58.002 339l69 368.001h355v-84H197.166l-38.166-193.165c42.832 30.166 87.832 45.167 134.831 45.167 62.331 0 115-21.67 157.831-65.003 42.837-43.334 64.335-99.001 64.335-166.996 0-64.838-18.831-120.836-56.5-168.001C413.663 16.999 351-12.002 271.666-12.002c-64.998 0-117.998 18.335-159.167 54.833-41.164 36.504-64.667 84.835-70.502 145.166z" id="glyph30"/><glyph unicode="6" horiz-adv-x="556" d="M498.998 540.998 412.003 534c-7.837 34.502-19 59.668-33.503 75.33-23.833 25.172-53.33 37.67-88.333 37.67-28.165 0-53.165-7.832-74.665-23.5-27.67-20.168-49.337-49.5-65.5-88.167-16.002-38.835-24.333-94-25-165.498 21.167 32.164 47.167 56.163 77.831 71.665 30.67 15.668 62.668 23.5 96.332 23.5 58.668 0 108.667-21.667 150-64.834C490.334 357 511 301.336 511 232.83c0-45-9.664-86.662-28.998-125.33-19.501-38.668-46-68.166-80.002-88.667-33.831-20.5-72.332-30.836-115.332-30.836-73.166 0-133 27.004-179.333 80.835-46.167 53.836-69.333 142.67-69.333 266.333 0 138.332 25.666 239.001 76.83 301.836 44.667 54.664 104.836 81.996 180.667 81.996 56.335 0 102.669-15.83 138.67-47.332 35.997-31.498 57.664-74.998 64.83-130.667zM138.999 231.997c0-30.331 6.504-59.33 19.334-86.995 12.836-27.67 30.837-48.671 53.67-63.168 23-14.501 47.332-21.833 73.165-21.833 37.502 0 69.5 14.996 95.998 45 26.5 29.998 39.835 70.666 39.835 122.164 0 49.499-13.17 88.5-39.335 116.999-26.166 28.504-59.502 42.834-99.997 42.834-39.668 0-73.504-14.33-101.17-42.834-27.665-28.499-41.5-65.828-41.5-112.166z" id="glyph31"/><glyph unicode="7" horiz-adv-x="556" d="M47.002 623.002v83.993H510V639c-45.497-48.496-90.834-113-135.499-193.505-44.835-80.492-79.33-163.333-103.834-248.49C253.164 137.165 241.83 71.335 236.995 0h-89.991c.992 56.33 11.996 124.496 33.16 204.337 21.174 79.991 51.335 156.994 90.834 231.158 39.5 74.175 81.506 136.673 126.001 187.507H47.002z" id="glyph32"/><glyph unicode="8" horiz-adv-x="556" d="M177.502 388.169c-36.504 13.333-63.501 32.496-81.168 57.163-17.501 24.833-26.335 54.503-26.335 89.003 0 52.167 18.666 95.832 55.999 131.33 37.503 35.5 87.169 53.333 149.335 53.333 62.336 0 112.665-18.164 150.665-54.497C463.998 628.168 483 584 483 531.834c0-33.17-8.668-62.165-26.003-86.667-17.33-24.668-43.665-43.665-79.165-56.998 43.83-14.338 77-37.338 99.835-69.337 22.834-31.833 34.334-69.834 34.334-114.167 0-61.166-21.67-112.499-64.837-154.166C403.83 8.833 346.999-12.003 276.498-12.003c-70.497 0-127.33 20.836-170.662 62.668-43.168 41.837-64.838 93.999-64.838 156.5 0 46.503 11.837 85.503 35.5 116.834 23.668 31.502 57.334 52.835 101.005 64.17zm-17.501 149.329c0-33.998 10.832-61.663 32.33-83.167 21.67-21.498 50.003-32.33 85.171-32.33 34.163 0 61.829 10.666 83.332 31.999C382.333 475.333 393 501.502 393 532.5c0 32.33-10.997 59.5-33.164 81.5-22 22-49.837 32.998-83.338 32.998-33.832 0-61.663-10.832-83.664-32.33-21.835-21.504-32.832-47.17-32.832-77.171zm-29.001-331c0-25.164 5.835-49.33 17.5-72.832 11.666-23.331 29.333-41.5 53.001-54.33C224.998 66.498 250.334 60 277.165 60c42.335 0 77 13.499 104.168 40.501C408.502 127.5 422 161.834 422 203.5c0 42.334-14 77.332-41.832 105.002-28.002 27.666-63.335 41.495-105.836 41.495-41.666 0-75.835-13.664-102.832-40.998-27.002-27.334-40.5-61.497-40.5-102.5z" id="glyph33"/><glyph unicode="9" horiz-adv-x="556" d="m55 166.002 84 6.995c7.166-39.662 20.835-68.332 40.998-86.165 20.168-17.832 46-26.831 77.668-26.831 27.002 0 50.665 6.167 71.17 18.666 20.499 12.334 37.166 28.83 49.997 49.666 12.836 20.665 23.668 48.667 32.501 83.835 8.834 35.163 13.168 70.999 13.168 107.497 0 3.837-.171 9.833-.503 17.667-17.5-27.997-41.5-50.831-71.832-68.167-30.332-17.501-63.336-26.163-98.67-26.163-59.162 0-109.165 21.498-150.163 64.495C62.502 350.333 41.997 407 41.997 477.33c0 72.666 21.339 131 64.17 175.338 42.665 44.162 96.168 66.328 160.669 66.328 46.331 0 88.831-12.5 127.5-37.664 38.497-24.998 67.664-60.669 87.666-107.166 19.997-46.336 30-113.499 30-201.336 0-91.497-9.838-164.33-29.669-218.5-19.83-54.332-49.5-95.501-88.665-123.835-39.166-28.333-85-42.5-137.67-42.5C200-12.003 154.333 3.5 118.833 34.666c-35.334 31.165-56.667 75-63.833 131.337zM414 481.831c0 50.334-13.333 90.338-39.999 119.836-26.5 29.498-58.836 44.333-96.836 44.333-39.331 0-73.334-15.834-102-47.668C146.332 566.5 132 525.164 132 474.498c0-45.497 13.67-82.498 40.833-110.832 27.334-28.498 61.337-42.665 101.833-42.665 40.667 0 74.002 14.167 100.17 42.665C401 392 414.002 431.502 414.002 481.83z" id="glyph34"/><glyph unicode="@" horiz-adv-x="1015" d="M568.998 80.162c-21.164-24.494-44.836-44.163-71.165-58.998-26.169-14.835-52.498-22.167-78.838-22.167-28.998 0-57.163 8.506-84.666 25.336-27.332 17.002-49.5 43-66.66 78.166C250.495 137.666 242 176.332 242 218.33c0 51.837 13.33 103.674 39.83 155.67 26.5 51.837 59.5 90.835 98.839 117.004 39.328 25.999 77.664 38.998 114.666 38.998 28.335 0 55.326-7.332 81.165-22.167 25.667-14.835 47.834-37.504 66.33-67.664l17.172 75.828h86.992l-70.332-328c-9.83-45.669-14.664-70.835-14.664-75.67 0-8.825 3.33-16.499 10-22.828 6.67-6.329 14.835-9.498 24.163-9.498 17.343 0 40 9.829 68.005 29.67 37.162 25.998 66.661 60.833 88.337 104.665 21.666 43.662 32.498 88.658 32.498 135.158 0 54.334-14.002 105.008-41.836 152.01-27.834 47.163-69.5 84.826-124.837 113.161-55.167 28.165-116.331 42.339-183.163 42.339-76.33 0-146.161-17.834-209.161-53.342-63.171-35.668-112.17-86.661-146.833-153.162-34.835-66.5-52.168-137.836-52.168-213.996 0-79.67 17.333-148.168 51.997-205.671C213.836-26.83 263.998-69.328 329.666-96.831c65.668-27.503 138.338-41.164 218.169-41.164 85.498 0 156.994 14.333 214.668 43.16C820.167-66.17 863.338-31.163 892.004 10.002H980c-16.671-34.163-45.167-69.17-85.499-104.666-40.331-35.497-88.337-63.673-144.005-84.335-55.668-20.662-122.83-31.004-201.168-31.004-72.328 0-139 9.339-199.994 27.834-61.164 18.506-113.172 46.34-156.172 83.502-43 37.333-75.327 80.173-97.163 128.498-27.332 61.506-41.004 127.836-41.004 199.001 0 79.17 16.34 154.838 48.838 226.664 39.83 88.006 96.33 155.5 169.502 202.342C346.495 704.67 435.163 728 539.499 728c80.834 0 153.504-16.5 217.838-49.5s115.168-82.168 152.159-147.495C941.162 474.835 957 413.671 957 347.671c0-94.335-33.17-178.008-99.5-251.169C798.17 30.834 733.493-1.995 663.161-1.995c-22.498 0-40.492 3.5-54.334 10.331-13.832 6.83-23.992 16.66-30.492 29.5-4.333 8.164-7.332 22.326-9.338 42.327zM332.003 212.17c0-44.676 10.662-79.34 31.826-104.004 21.174-24.835 45.337-37.162 72.84-37.162 18.165 0 37.333 5.496 57.664 16.329 20.171 11.003 39.5 27.162 57.835 48.667 18.495 21.495 33.501 48.838 45.166 81.837 11.836 33 17.663 66.16 17.663 99.49 0 44.174-10.993 78.668-33 103.001C560.002 444.834 533.172 457 501.666 457c-20.833 0-40.502-5.336-58.998-15.838-18.336-10.662-36.17-27.663-53.502-51.164-17.161-23.33-31.164-51.826-41.495-85.498-10.502-33.502-15.667-64.335-15.667-92.329z" id="glyph35"/><glyph unicode="A" horiz-adv-x="667" d="m-1.492 0 274.666 716.001h104.162L668.83 0H561.007l-82.84 216.998H176.663L98.993 0H-1.493zm205.999 293.992H448.5l-74.67 198.505c-22.5 60.339-39.502 110.165-51.334 149.512-9.837-46.668-23.005-92.504-39.503-137.836l-78.486-210.18z" id="glyph36"/><glyph unicode="B" horiz-adv-x="667" d="M73.004 0v716.001h268.663c54.666 0 98.506-7.165 131.66-21.669 33.014-14.503 58.847-36.831 77.514-67 18.823-29.996 28.157-61.502 28.157-94.5 0-30.498-8.328-59.332-24.826-86.327-16.499-27.012-41.498-48.836-74.999-65.508 43.32-12.665 76.664-34.334 99.825-64.989 23.334-30.5 35.01-66.671 35.01-108.343 0-33.657-7.183-64.832-21.34-93.666-14.173-28.834-31.66-51.005-52.497-66.671-20.836-15.493-46.997-27.325-78.33-35.322C430.337 4.008 391.84 0 346.16 0H73.004zm95.001 415h154.82c42.002 0 72.171 2.828 90.335 8.327 24.167 7.165 42.331 19.17 54.51 35.843 12.162 16.672 18.338 37.49 18.338 62.664 0 23.837-5.673 44.829-17.176 62.837-11.328 18.164-27.67 30.655-48.836 37.334-21.166 6.662-57.494 9.993-108.83 9.993H168.006V415zm0-330.997h178.328c30.673 0 52.168 1.162 64.66 3.504 21.668 3.835 40.005 10.323 54.665 19.5 14.677 9.16 26.682 22.502 36.172 39.99 9.507 17.504 14.174 37.664 14.174 60.512 0 26.821-6.835 49.999-20.662 69.829-13.671 19.83-32.668 33.656-57.008 41.654-24.167 8.015-59.16 12.005-104.665 12.005H168.006V84.003z" id="glyph37"/><glyph unicode="C" horiz-adv-x="722" d="m586.995 251.158 95.002-23.993c-19.83-77.827-55.499-137.003-106.99-177.825C523.498 8.5 460.505-12.006 385.992-12.006 308.998-12.006 246.334 3.66 198 35.166c-48.334 31.332-85.01 76.838-110.165 136.327-25.173 59.68-37.838 123.506-37.838 191.843 0 74.495 14.174 139.5 42.66 195 28.505 55.498 69.014 97.656 121.512 126.49 52.497 28.833 110.338 43.18 173.33 43.18 71.668 0 131.834-18.163 180.498-54.665 48.836-36.502 82.84-87.68 101.993-153.675L577 497.668c-16.498 51.994-40.665 90.005-72.17 113.669-31.506 23.837-71.165 35.669-118.996 35.669-54.839 0-100.83-13.168-137.662-39.503-36.848-26.336-62.837-61.831-77.67-106.174-15.007-44.5-22.501-90.335-22.501-137.49 0-60.841 8.83-113.998 26.491-159.33 17.679-45.506 45.176-79.336 82.511-101.837 37.334-22.502 77.67-33.674 121.164-33.674 53 0 97.673 15.336 134.331 45.835 36.675 30.673 61.501 76.005 74.496 136.327z" id="glyph38"/><glyph unicode="F" horiz-adv-x="610" d="M82.008 0v716.001h482.99v-84.003H176.993v-223h336.01v-84.003h-336.01V0H82.008z" id="glyph39"/><glyph unicode="a" horiz-adv-x="556" d="M405.003 64.996c-32.669-27.834-64.174-47.333-94.335-58.827-30.171-11.505-62.499-17.172-97.163-17.172-57.003 0-100.835 13.831-131.508 41.665-30.663 27.674-45.999 63.171-45.999 106.342 0 25.326 5.838 48.497 17.332 69.5 11.665 20.993 26.831 37.664 45.497 50.332 18.838 12.669 39.841 22.327 63.342 28.827 17.333 4.504 43.502 8.837 78.326 13.17 71.005 8.335 123.503 18.496 157.004 30.171.331 11.996.502 19.66.502 22.829 0 35.668-8.335 60.834-25.006 75.498C350.497 447.17 316.996 457 272.662 457c-41.495 0-72.168-7.332-91.827-21.836-19.84-14.494-34.333-40.161-43.832-77.163l-86 11.996c7.834 36.83 20.662 66.671 38.667 89.34 17.994 22.658 43.992 40 77.995 52.328C201.497 523.832 240.997 530 285.661 530c44.334 0 80.504-5.165 108.337-15.667 27.664-10.502 48.166-23.501 61.165-39.329 13-15.838 22.167-35.838 27.503-60.001 2.828-15.006 4.333-42.007 4.333-80.834V217.497c0-81.496 1.836-133.002 5.497-154.827C495.996 40.834 503.328 20 514 0h-91.998c-8.837 18.496-14.504 40.172-17.001 64.996zm-7.001 195c-32.007-13-80.002-23.993-144.005-33-36.33-5.166-61.997-10.993-76.992-17.493-15.006-6.5-26.5-15.998-34.675-28.336-8.165-12.497-12.327-26.329-12.327-41.665 0-23.17 8.826-42.67 26.66-58.166 17.834-15.507 43.832-23.34 78.006-23.34 33.832 0 63.993 7.342 90.493 22.166 26.34 14.675 45.838 34.835 58.176 60.343 9.499 19.83 14.162 48.998 14.162 87.494l.502 31.996z" id="glyph40"/><glyph unicode="c" horiz-adv-x="500" d="m405.003 190.004 86-12.007c-9.499-59.169-33.501-105.328-72.34-138.829-38.826-33.5-86.66-50.172-143.161-50.172-70.834 0-127.836 23.17-170.836 69.5C61.496 104.836 40 171.166 40 257.497c0 56 9.328 104.837 27.834 146.833 18.495 41.837 46.66 73.332 84.665 94.165C190.335 519.498 231.5 530 276.163 530c56.17 0 102.34-14.162 138.007-42.669 35.828-28.496 58.828-68.998 68.828-121.337l-84.997-13c-8.164 34.836-22.497 61.005-43.33 78.668-20.673 17.504-45.668 26.34-75.007 26.34-44.334 0-80.333-15.838-108.167-47.503-27.663-31.837-41.495-81.838-41.495-150.505 0-69.66 13.33-120.163 40-151.657 26.832-31.506 61.667-47.333 104.496-47.333 34.664 0 63.502 10.491 86.501 31.665 23.17 20.993 37.834 53.502 44.003 97.334z" id="glyph41"/><glyph unicode="d" horiz-adv-x="556" d="M400.999 0v65.839C368.158 14.659 319.842-11 255.998-11 214.673-11 176.662.33 142.173 23.16c-34.68 22.674-61.501 54.51-80.672 95.175C42.504 159.175 32.997 205.999 32.997 259c0 51.664 8.675 98.506 25.833 140.664 17.331 42.001 43.163 74.34 77.67 96.667 34.333 22.501 73.004 33.674 115.508 33.674 31.332 0 59.16-6.68 83.5-19.83 24.323-13.167 44.152-30.516 59.488-51.682v257.508h88.01v-716H401zM123.002 258.826c0-66.324 14-115.82 42.158-148.662 28-32.824 61.171-49.166 99.339-49.166 38.496 0 71.164 15.666 98.159 46.997 26.838 31.332 40.336 79.163 40.336 143.51 0 70.66-13.654 122.655-41.169 155.826-27.324 33.171-61.154 49.67-101.334 49.67-39.156 0-71.824-15.84-98.16-47.674-26.161-31.835-39.329-81.99-39.329-150.501z" id="glyph42"/><glyph unicode="g" horiz-adv-x="556" d="m49.83-43 85.007-11.996c3.501-26.34 13.501-45.508 29.83-57.675 21.837-16.158 51.666-24.333 89.5-24.333 40.663 0 72.169 8.175 94.336 24.333 22.167 16.17 37.162 39.009 44.995 68.166 4.504 17.834 6.67 55.338 6.34 112.5C361.33 22.67 313.497 0 256.164 0c-71.325 0-126.662 25.668-165.66 77.163-39.169 51.335-58.667 113.001-58.667 184.839 0 49.5 8.997 95.168 26.83 137.004 17.834 41.826 43.833 73.993 77.836 96.832 34.003 22.83 73.993 34.163 120.003 34.163 61.164 0 111.657-25.006 151.327-74.996v63.993h81.005V70.835c0-80.834-8.165-137.997-24.675-171.67-16.33-33.66-42.499-60.331-77.996-79.83-35.667-19.499-79.5-29.339-131.497-29.339-61.837 0-111.667 13.842-149.672 41.676-38.165 27.664-56.5 69.5-55.166 125.328zm72.008 311.33c0-67.835 13.49-117.334 40.492-148.498 27.172-31.164 61.004-46.831 101.667-46.831 40.502 0 74.335 15.496 101.838 46.5 27.332 31.004 40.993 79.671 40.993 146.001 0 63.331-14.162 111.166-42.327 143.333-28.165 32.168-62.168 48.166-101.838 48.166-39.158 0-72.328-15.838-99.832-47.504-27.332-31.666-40.993-78.668-40.993-141.166z" id="glyph43"/><glyph unicode="h" horiz-adv-x="556" d="M65.995 0v716.001h88.01V458.337c40.822 47.83 92.33 71.668 154.664 71.668 38.167 0 71.338-7.512 99.669-22.675 28.157-15.163 48.333-35.999 60.495-62.664 12.161-26.665 18.164-65.491 18.164-116.167V0h-87.993v328.17c0 43.822-9.507 75.83-28.33 95.834C351.658 444.007 324.993 454 290.33 454c-25.832 0-50.172-6.662-73.003-20.16-22.831-13.514-39-31.835-48.82-55.012-9.68-22.988-14.503-54.823-14.503-95.488V0h-88.01z" id="glyph44"/><glyph unicode="i" horiz-adv-x="222" d="M66 616v100.002h87.995V616H65.999zM66 0v518.997h87.995V0H65.999z" id="glyph45"/><glyph unicode="l" horiz-adv-x="222" d="M64.004 0v716.002h87.995V0H64.004z" id="glyph46"/><glyph unicode="m" horiz-adv-x="832" d="M66 0v518.997h78.998v-73.331c16.169 25.336 37.834 45.838 64.836 61.164 27.001 15.508 57.664 23.17 92.168 23.17 38.336 0 69.831-8.004 94.335-23.831 24.494-15.999 41.826-38.166 51.826-66.832C489.498 499.829 543 530 609 530c51.666 0 91.496-14.162 119.17-42.669 27.834-28.495 41.826-72.328 41.826-131.497V0H682v326.666c0 34.996-3 60.333-8.666 75.83-5.667 15.506-15.999 27.833-31.164 37.343C627.164 449.337 609.5 454 589.33 454c-36.66 0-66.992-12.167-91.166-36.33-24.162-24.333-36.169-63.17-36.169-116.501V0H374v336.837c0 38.997-7.162 68.325-21.495 87.824-14.333 19.51-37.834 29.34-70.343 29.34-24.664 0-47.493-6.5-68.497-19.5-21.003-12.999-36.17-32.007-45.668-57.173-9.328-24.995-14.002-61.164-14.002-108.327V-.002H65.999z" id="glyph47"/><glyph unicode="n" horiz-adv-x="556" d="M66 0v518.997h78.998v-73.662c38.005 56.5 93 84.665 164.838 84.665 31.334 0 60.001-5.667 86.16-16.83 26.169-11.174 45.838-25.999 58.838-44.174 12.999-18.165 22.167-39.83 27.332-64.825 3.17-16.34 4.835-44.836 4.835-85.51V0h-87.996v315.332c0 35.838-3.34 62.67-10.17 80.332-6.831 17.674-18.998 31.837-36.33 42.499C335.162 448.664 314.67 454 291.329 454c-37.332 0-69.5-11.836-96.661-35.668-27.173-23.672-40.673-68.838-40.673-135.168V0H65.999z" id="glyph48"/><glyph unicode="o" horiz-adv-x="556" d="M33 259.504c0 95.83 26.67 166.834 80.161 212.993 44.505 38.336 99.01 57.504 163.173 57.504 71.165 0 129.501-23.33 174.828-70.002 45.167-46.5 67.835-110.995 67.835-193.163 0-66.671-10-118.999-30-157.165-20-38.175-49.158-67.835-87.494-89.009C363.338-.502 321.5-11.004 276.335-11.004c-72.67 0-131.337 23.17-176.172 69.671C55.338 105.167 33 172.17 33 259.504zm90.002-.17c0-66.33 14.493-116 43.501-148.83 29.168-33 65.668-49.5 109.832-49.5 43.662 0 80.002 16.5 109.17 49.66 28.997 33.17 43.49 83.673 43.49 151.497 0 64.004-14.663 112.51-43.831 145.34C355.995 440.5 319.666 457 276.336 457c-44.164 0-80.664-16.33-109.832-49.169-29.009-32.829-43.502-82.328-43.502-148.498z" id="glyph49"/><glyph unicode="r" horiz-adv-x="332" d="M64.996 0v518.997h79.01v-79.5c20.16 36.831 38.826 61.164 55.998 72.84C217.166 524.163 236.003 530 256.505 530c29.66 0 59.83-9.338 90.493-27.834l-31.335-81.165c-21.334 11.996-42.658 17.994-63.992 17.994-19.168 0-36.34-5.827-51.506-17.332-15.166-11.494-25.999-27.493-32.498-47.995-9.83-31.164-14.664-65.337-14.664-102.5V0H64.996z" id="glyph50"/><glyph unicode="s" horiz-adv-x="500" d="M31.004 154.998 117.996 169c4.835-34.835 18.507-61.495 40.834-80.161 22.337-18.507 53.672-27.835 93.673-27.835 40.502 0 70.492 8.165 90.162 24.665 19.499 16.329 29.339 35.668 29.339 57.834 0 19.83-8.837 35.497-26.34 46.832-12.327 7.833-42.328 17.663-90.002 29.83-64.324 16.169-108.828 30.171-133.824 41.996-24.835 12.007-43.672 28.336-56.5 49.34-12.84 20.833-19.34 44.003-19.34 69.329 0 23.17 5.337 44.504 15.839 64.174 10.662 19.659 24.995 35.999 43.16 48.998 13.671 10 32.337 18.495 55.839 25.497 23.66 7 48.827 10.501 75.828 10.501 40.673 0 76.33-5.837 107.003-17.663 30.833-11.675 53.502-27.674 68.166-47.674 14.504-20.16 24.664-46.991 30.171-80.663l-86.01-11.996c-3.831 27.001-15.166 48.165-33.832 63.33-18.666 15.166-44.996 22.67-79.159 22.67-40.171 0-69.009-6.671-86.17-20.001-17.172-13.34-25.838-29.008-25.838-46.831 0-11.335 3.5-21.676 10.672-30.834 7.161-9.338 18.336-17.172 33.661-23.34 8.837-3.33 34.505-10.833 77.505-22.498 61.997-16.5 105.328-30.172 130.003-40.663 24.664-10.502 43.992-26.009 57.995-45.999 14.173-20.17 21.163-45.166 21.163-75.167 0-29.168-8.495-56.671-25.657-82.51-17.172-25.827-41.836-45.827-74.003-59.99-32.338-14.173-68.839-21.174-109.501-21.174-67.334 0-118.83 14.002-154.166 41.836-35.337 28.005-57.835 69.33-67.665 124.165z" id="glyph51"/><glyph unicode="t" horiz-adv-x="277" d="M257.005 78.503 268.993.833c-24.653-5.17-46.824-7.825-66.15-7.825-31.836 0-56.506 4.997-74.184 15.163C111.17 18.338 98.836 31.505 91.67 48.004c-7.165 16.499-10.67 51.162-10.67 103.988v299.006H15.997v68.007h65.006v128.33l87.993 52.826V519.005h88.01v-68.007h-88.01V146.996c0-25.156 1.509-41.325 4.667-48.49 3-7.165 7.997-12.838 15.006-17.175 6.992-4.164 17.002-6.332 29.996-6.332 9.663 0 22.502 1.162 38.341 3.504z" id="glyph52"/><glyph unicode="v" horiz-adv-x="499" d="M207.838 0 12.005 519.006h94.17L217.17 208.168a1574.831 1574.831 0 0 0 33.327-104.509c7.842 27.342 18.667 60.183 32.841 98.68l115.335 316.667h90.318L292.5 0h-84.662z" id="glyph53"/></font>
</defs>
</svg>
